Лабораторный анализ масла от 1400 руб | Заказать экспертизу масляного фильтра
Источник дохода сайта - реклама где-то внизу страницы, пожалуйста, отключите блокировщики рекламы | Яндекс Дзен

Экшн-камера в качестве регистратора

Аватара пользователя
Gubkin
Администратор
Сообщения: 16605
Зарегистрирован: 22 июн 2015, 19:28
Репутация: 4126
Откуда: Самара
Имя: Иосиф Виссарионович
Авто: KIA Sorento 2,5 CRDI
Масло: Татнефть Luxe 5w-40

Экшн-камера в качестве регистратора

Сообщение Gubkin » 17 янв 2017, 14:58

ух как я доволен экшн камерой Elephone ELE Explorer 4K Ultra HD WiFi Action Camera в качестве регистратора

плюсы
-удобное крепление
-авто выключение экрана при работе
-батарея съемная, 1000 mAh, продаётся отдельно! Видеорегистраторы сосут :D
-Wi-Fi
- качество звука просто шикарно в сравнении с регистраторами
-разрешение 4К, замедленная съемка есть и прочее
-цена 3300 руб
-набор креплений для велика, подводной съемки и прочего

брал тут http://www.gearbest.com/action-cameras/pp_265287.html
почитать на 4pda можно тут http://4pda.ru/forum/index.php?showtopic=706191

Ещё не разобрался как там устроено перезаписывание старого видео, можно ли ставить метку на видеофайл от перезаписи

пример видео
только ютюб сильно пережимает, качество оригинального файла много лучше
http://www.youtube.com/watch?v=20vhVwNZLug

свойства видеофайла
Spoiler
Show
General
Complete name : E:\video\20170117_135703A.mp4
Format : MPEG-4
Format profile : Base Media
Codec ID : isom
File size : 339 MiB
Duration : 3mn 0s
Overall bit rate mode : Variable
Overall bit rate : 15.8 Mbps

Video
ID : 1
Format : AVC
Format/Info : Advanced Video Codec
Format profile : Main@L5.1
Format settings, CABAC : Yes
Format settings, ReFrames : 1 frame
Format settings, GOP : M=1, N=30
Codec ID : avc1
Codec ID/Info : Advanced Video Coding
Duration : 3mn 0s
Source duration : 3mn 0s
Bit rate : 15.7 Mbps
Width : 1 920 pixels
Height : 1 080 pixels
Display aspect ratio : 16:9
Frame rate : 29.970 fps
Color space : YUV
Chroma subsampling : 4:2:0
Bit depth : 8 bits
Scan type : Progressive
Bits/(Pixel*Frame) : 0.253
Stream size : 338 MiB (100%)
Source stream size : 338 MiB (100%)
Language : English
Color range : Limited
Color primaries : BT.601 PAL
Transfer characteristics : BT.601
Matrix coefficients : BT.601
mdhd_Duration : 180140

Audio
ID : 2
Format : AAC
Format/Info : Advanced Audio Codec
Format profile : LC
Codec ID : 40
Duration : 3mn 0s
Source duration : 3mn 0s
Bit rate mode : Variable
Bit rate : 15.9 Kbps
Channel(s) : 1 channel
Channel positions : Front: C
Sampling rate : 8 000 Hz
Compression mode : Lossy
Stream size : 349 KiB (0%)
Source stream size : 349 KiB (0%)
Language : English
mdhd_Duration : 180140
Отправлено спустя 20 часов 20 минут 29 секунд:
Ночная запись
хреновая конечно, но что хотеть от устройства такой ценой

https://www.youtube.com/watch?v=GfV-rbWt-eA
Антисоветчик - значит русофоб (Д.Ю.Пучков)

Аватара пользователя
yev
Новичок
Сообщения: 69
Зарегистрирован: 17 фев 2016, 17:36
Репутация: 34
Откуда: KZ, UKG
Авто: Новый Жигуль
Масло: ЛЛС 5W40

Экшн-камера в качестве регистратора

Сообщение yev » 25 янв 2017, 17:10

Хорошая штука, но только для меня один минус - нет GPS. Люблю я регистраторы с GPS (чтобы скорость движения писал). Этой штукой пользовался когда на лыжах катались, на телеке потом глядели, класс.

Вернуться в «Видеорегистраторы»

Кто сейчас на конференции

Сейчас этот форум просматривают: CCBot/2.0 и 0 гостей